Загадочная история Бенджамина Баттона  › Торрент

Название: Загадочная история Бенджамина Баттона
Оригинальное название: The Curious Case of Benjamin Button
Жанр: драма, фантастика, мистика
Год выхода: 2008
Страна: США, Warner Bros Pictures, Paramount Pictures
Режиссер: Дэвид Финчер
В ролях: Кейт Бланшетт, Джулия Ормонд, Брэд Питт, Фаун А. Чэмберс, Элиас Котеас, Донна ДюПлантье, Джейсон Флеминг

Сюжет фильма: Фильм о мужчине, который родился в возрасте 80-ти лет, а затем… начал молодеть. Этот человек, как и каждый из нас, не мог остановить время. Его путь в ХХI век, берущий свое начало в Новом Орлеане в 1918-м году в самом конце Первой Мировой войны, будет столь необычен, что вряд ли мог иметь место в жизни кого-либо другого. Фильм повествует о судьбе уникального человека, о людях и событиях, что ждут его впереди, о любви, которую он обретет и потеряет, о радостях жизни и грусти потерь и о том, что остается с нами вне времени.

КиноПоиск:
8.04 (245466 голосов)
IMDB:
7.80 (469264 голосов)


Скриншоты
Загадочная история Бенджамина Баттона (2008) BDRip 720p от FireBit-Films Загадочная история Бенджамина Баттона (2008) BDRip 720p от FireBit-Films Загадочная история Бенджамина Баттона (2008) BDRip 720p от FireBit-Films Загадочная история Бенджамина Баттона (2008) BDRip 720p от FireBit-Films

Продолжительность: 02:46:04
Перевод: Дублированный перевод (дубляж) | Лицензия

Качество: BDRip 720p
Видео: Н.264 1280х536 2965 Кб/с
Аудио #1: русский АС3 5.1 384 Кб/с
Аудио #2: украинский АС3 5.1 384 Кб/с

Релиз группа: Firebit - Films Загадочная история Бенджамина Баттона (2008) BDRip 720p от FireBit-Films
Релиз от: - ilu Загадочная история Бенджамина Баттона (2008) BDRip 720p от FireBit-Films

  • Раздает: 0
  • Качает: 0
  • Скачали: 0
  • Размер: 4.49 Gb
  • Хеш: 4e406d375c32a15b923453adc0c3c09b3aa268c2
  • Сидеры были: 07.09.2015 02:02
Детальная статистика по трекерам (4)
udp://bt.firebit.org:2710 Раздают: 0 Качают: 0 Скачали: 0
udp://opentor.org:2710 Раздают: 0 Качают: 0 Скачали: 0
udp://tracker.leechers-paradise.org:6969 Раздают: 0 Качают: 0 Скачали: 0
udp://tracker.coppersurfer.tk:6969 Раздают: 0 Качают: 0 Скачали: 0

Список файлов входящих в торрент (1)
The Curious Case of Benjamin Button _ilu_.mkv - 4.49 Gb

Искать эту раздачу на других открытых трекерах




Похожие:

Раздача
Загадочная история Бенджамина Баттона (2008) DVDRip 4.2 Gb 0 05.05.2009
Загадочная история Бенджамина Баттона (2008) DVD5 Remux 3.97 Gb 0 11.06.2009
Загадочная история Бенджамина Баттона (2008) BDRip от HQCLUB 3.95 Gb 0 01.07.2011
Загадочная история Бенджамина Баттона (2008) HDRip {R.G. FireBit-Films} 494.74 Mb 0 04.08.2013
Загадочная история Бенджамина Баттона (2008) BDRip от MediaClub {Android} 733.48 Mb 15 11.05.2015
Загадочная история Бенджамина Баттона (2008) BDRip AVC 2.74 Gb 0 19.12.2013
FireBit-Films. Релизы июня 2011 г. 10.07.2011
Мне бы в небо (2009) BDRip 720p от FireBit-Films 3.35 Gb 0 03.07.2011
Не пойман - не вор (2006) BDRip 720р от FireBit-Films 2.67 Gb 0 19.05.2011
Гарри Поттер и Дары смерти: Часть 1 (2010) BDRip 720p от FireBit-Films 3.06 Gb 0 05.04.2011

Добавление комментария:

Только зарегистрированные пользователи могут оставлять комментарии. Зарегистрируйтесь или войдите, если вы уже зарегистрированы на нашем трекере.
DEAD199328

DEAD199328 [Пользователи] [11.08.2011 08:11:07]

Аудио #1
Идентификатор : 2
Формат : AC-3
Формат/Информация : Audio Coding 3
Расширение режима : CM (complete main)
Режим смешивания : Header stripping
Идентификатор кодека : A_AC3
Продолжительность : 2 ч. 46 м.
Вид битрейта : Постоянный
Битрейт : 384 Кбит/сек
Каналы : 6 каналов
Расположение каналов : Front: L C R, Side: L R, LFE
Частота : 48,0 КГц
Битовая глубина : 16 бит
Метод сжатия : С потерями
Размер потока : 456 Мбайт (10%)
Язык : Russian

Аудио #2
Идентификатор : 3
Формат : AC-3
Формат/Информация : Audio Coding 3
Расширение режима : CM (complete main)
Режим смешивания : Header stripping
Идентификатор кодека : A_AC3
Продолжительность : 2 ч. 46 м.
Вид битрейта : Постоянный
Битрейт : 448 Кбит/сек
Каналы : 6 каналов
Расположение каналов : Front: L C R, Side: L R, LFE
Частота : 48,0 КГц
Битовая глубина : 16 бит
Метод сжатия : С потерями
Размер потока : 532 Мбайт (12%)
Язык : Ukrainian
sergeyvins

sergeyvins [Пользователи] [26.06.2011 19:39:31]

суперский фильм.я думаю, никого не оставит ровнодушным
Makcimalist

Makcimalist [Инструкторы] [16.06.2011 16:12:18]

Непередаваемой красоты шедевр Финчера!
Видеоряду не хватает насыщенности и глубины... На DVD (по этим параметрам) была лучшая картинка!recourse
Eroll_999

Eroll_999 [Пользователи] [16.06.2011 06:16:29]

фильм не обычный, рекомендую кто не смотрел. Спасибо !!!
vlads

vlads [Пользователи] [15.06.2011 20:16:50]

видел. мне понравился wink
Онлайн
Всего на сайте: 25
- Анонимов: 22
- Авторизированных: 0
-- Команда сайта: 0
-- Пользователи: 0
- Поисковых роботов: 3

Команда сайта:

Пользователи:

Поисковые роботы: Google, Yahoo!, Яндекс

Уважаемый пользователь нашего сайта!
Вы используете плагин AceStream/TorrentStream. В последнее время стало известно, что он распространяет вредоносное ПО. Рекомендуем удалить данный плагин.