IRON MAIDEN-Death On The Road  › Торрент

Исполнитель:
Год: 2006
Жанр: Heavy metal
Отличительной особенностью прошедшего тура, по заявлению лидера Iron Maiden Стива Харриса, стала визуальная сторона выступлений – и это действительно так: сцена раскрашена а-ля мрачная темница, а "фотообои" на заднике несколько раз сменяются в контексте шоу. Брюс предстает перед зрителями то в накидке и золоченой маске с венецианского карнавала ("Dance Of Death"), то в каске и шинели пробирается сквозь противопехотные заграждения ("Paschendale"), то качает вправо-влево здоровенное полотнище британского флага ("The Trooper"). На протяжении всего концерта Диккинсон не выказывает признаков усталости, носится по сцене, время от времени от избытка чувств выделывая акробатические прыжки и, оправдывая полученное в юности прозвище "Сирена", в своей классической манере "истошно вещает о Танце Смерти, Страхе Тьмы, Числе Зверя и прочих Дичайших Видениях в Прекрасном Новом Мире". Снято все действительно зрелищно, 100 минут концерта пролетают на одном дыхании – от intro и до завершающего биса "Run to the Hills
Скриншоты:
IRON MAIDEN-Death On The Road (2006)  DVDRip IRON MAIDEN-Death On The Road (2006)  DVDRip IRON MAIDEN-Death On The Road (2006)  DVDRip

Треклист

Формат: AVI
Качество: DVDRip
Продолжительность: 1h 42mn
Аудио:
Format : AC-3
Bit rate : 224 Kbps
Channel(s) : 2 channels
Sampling rate : 48.0 KHz
Stream size : 164 MiB (8%)
Видео:
Codec ID/Hint : DivX 5
Bit rate : 2 512 Kbps
Width : 720 pixels
Height : 404 pixels
Display aspect ratio : 16:9
Stream size : 1.79 GiB (91%)

  • Раздает: 0
  • Качает: 0
  • Скачали: 0
  • Размер: 1.96 Gb
  • Хеш: 77ccb48797747bcc901e6f203857df3b19874f4c
  • Сидеры были: 16.02.2016 20:38
Детальная статистика по трекерам (4)
udp://bt.firebit.org:2710 Раздают: 0 Качают: 0 Скачали: 0
udp://opentor.org:2710 Раздают: 0 Качают: 0 Скачали: 0
udp://tracker.leechers-paradise.org:6969 Раздают: 0 Качают: 0 Скачали: 0
udp://tracker.coppersurfer.tk:6969 Раздают: 0 Качают: 0 Скачали: 0

Список файлов входящих в торрент (1)
IRON MAIDEN-Death On The Road-2006.avi - 1.96 Gb

Искать эту раздачу на других открытых трекерах




Похожие:

Раздача
Iron Maiden and Bruce Dickinson - Дискография - 1980-2008, APE (image + .cue) 15.8 Gb 0 24.11.2010
Iron Maiden - дискография (1979-2009) MP3 6.59 Gb 0 10.01.2011
Amy MacDonald дискография (2007 - 2010) МР3 217.32 Mb 0 27.03.2011
Iron Maiden - En Vivo! (2012) MP3 252.12 Mb 0 03.04.2012
Пила 6/SAW VI - Soundtrack 140.07 Mb 0 05.11.2009
Iron Maiden - Live After Death (1984) 2 x DVD-9 14.24 Gb 0 25.10.2010
Iron Maiden - El Dorado (single) 2010 mp3 10.4 Mb 0 18.06.2010
Flashover Recordings Miami Sampler 2011 (2011), MP3, 320 kbps 245.4 Mb 0 17.03.2011
Sad (Невский Бит) - Огонь и свет (2011) MP3 75.96 Mb 0 06.02.2011
Black Hole Radio: The Compilation - February (2011), MP3, 320 kbps 167.21 Mb 0 25.02.2011

Добавление комментария:

Только зарегистрированные пользователи могут оставлять комментарии. Зарегистрируйтесь или войдите, если вы уже зарегистрированы на нашем трекере.
Онлайн
Всего на сайте: 59
- Анонимов: 56
- Авторизированных: 0
-- Команда сайта: 0
-- Пользователи: 0
- Поисковых роботов: 3

Команда сайта:

Пользователи:

Поисковые роботы: bing, Google, Яндекс

Уважаемый пользователь нашего сайта!
Вы используете плагин AceStream/TorrentStream. В последнее время стало известно, что он распространяет вредоносное ПО. Рекомендуем удалить данный плагин.